Porn Movie Collection

#1

This Aint Lady Gaga XXX Parody

















Info:
Category Feature, Parody / Spoof, Comedy
Director Axel Braun
Starring Aubrey Addams, Helly Mae Hellfire, Marco Banderas, Ron Jeremy, Scott Lyons, Marco Rivera

Watch this parodied Gaga show you her blow job face while she blows Ron Jeremy, has a 4-way with Madonna, eats out Beyonce? And does an up close and very personal interview with Larry King!



Media Info:


General

Format : AVI
Format/Info : Audio Video Interleave
File size : 684 MiB
Duration : 1h 16mn
Overall bit rate : 1 252 Kbps
Writing application : Lavf52.105.0

Video
ID : 0
Format : AVC
Format/Info : Advanced Video Codec
Format profile : High@L3.1
Format settings, CABAC : Yes
Format settings, ReFrames : 3 frames
Codec ID : H264
Duration : 1h 16mn
Bit rate : 1 112 Kbps
Width : 960 pixels
Height : 540 pixels
Display aspect ratio : 16:9
Frame rate mode : Variable
Frame rate : 25.000 fps
Color space : YUV
Chroma subsampling : 4:2:0
Bit depth : 8 bits
Scan type : Progressive
Bits/(Pixel*Frame) : 0.086
Stream size : 607 MiB (89%)
Writing library : x264 core 115

Audio
ID : 1
Format : MPEG Audio
Format version : Version 1
Format profile : Layer 3
Mode : Joint stereo
Mode extension : MS Stereo
Codec ID : 55
Codec ID/Hint : MP3
Duration : 1h 16mn
Bit rate mode : Constant
Bit rate : 128 Kbps
Channel(s) : 2 channels
Sampling rate : 44.1 KHz
Compression mode : Lossy
Stream size : 69.9 MiB (10%)
Alignment : Aligned on interleaves
Interleave, duration : 26 ms (0.65 video frame)
Interleave, preload duration : 470 ms
Writing library : LAME3.97




Uploaded

Cyberlocker

Muchshare

Rapidgator




 
#2



Gangbanged [2011]





Studio:Elegant Angel

Category:All Sex, Anal, HD - Shot In High Def, Threesomes & More, Double Penetration, 2012 AVN Award Winner, Gang Bang

Director:Mason
Starring:Lisa Ann, Bobbi Star

Release Date:Apr 29, 2011




Media Info:

Format : AVI at 1 501 Kbps
Length : 1395 MiB for 2h 17mn

Video #0 : AVC at 1 545 Kbps
Aspect : 640 x 352 (1.818) at 23.976 fps
Formato : Advanced Simple@L5
BVOP : 3
QPel : No
GMC : No warppoints
Qualiti : 0.251
Codec : XviD 1.2.1

Audio #0 : MPEG Audio at 134 Kbps
Infos : 2 channels, 48.0 KHz








http://freakshare.com/files/b3haga4v/Ggbged11.part1.rar.html
http://freakshare.com/files/q4l051ux/Ggbged11.part2.rar.html
http://freakshare.com/files/d9jf91v5/Ggbged11.part3.rar.html
http://freakshare.com/files/604rq4u5/Ggbged11.part4.rar.html



http://muchshare.net/br5z5p7ldfkd
http://muchshare.net/d2br6c8o87tb
http://muchshare.net/jz96w3qelqzo
http://muchshare.net/lh4r5q4dpb6n



https://rapidgator.net/file/24ce6cfddf15d14a3afe3a4fe711aa50/Ggbged11.part1.rar.html
https://rapidgator.net/file/a1018b657c7a48f1b0971d9d34493535/Ggbged11.part2.rar.html
https://rapidgator.net/file/da930c9c33893035a697e3b8041afc88/Ggbged11.part3.rar.html
https://rapidgator.net/file/28d4f13c92b4001ec6043e55f07e6750/Ggbged11.part4.rar.html



http://uploaded.net/file/kj6vzd0x/Ggbged11.part1.rar
http://uploaded.net/file/2i9x6zwb/Ggbged11.part2.rar
http://uploaded.net/file/hemjm12u/Ggbged11.part3.rar
http://uploaded.net/file/te48rmgr/Ggbged11.part4.rar



http://bitshare.com/files/bgpyxacp/Ggbged11.part1.rar.html
http://bitshare.com/files/behl4bqa/Ggbged11.part2.rar.html
http://bitshare.com/files/xo242tvs/Ggbged11.part3.rar.html
http://bitshare.com/files/o2ub2m86/Ggbged11.part4.rar.html