Gabriella Paltrova - Coochie Coat

Pazitel

Proud Member
#1
Description:

Format : Windows Media
File size : 324 MiB
Duration : 28mn 33s
Overall bit rate : 1 587 Kbps
Maximum Overall bit rate : 1 566 Kbps
Encoded date : UTC 2013-04-04 17:04:36.000

Video
ID : 1
Format : VC-1
Format profile : MP
Codec ID : WMV3
Codec ID/Info : Windows Media Video 9
Codec ID/Hint : WMV3
Description of the codec : Windows Media Video 9 - 2-pass VBR
Duration : 28mn 33s
Bit rate : 1 500 Kbps
Width : 768 pixels
Height : 432 pixels
Display aspect ratio : 16:9
Frame rate : 29.970 fps
Bit depth : 8 bits
Scan type : Progressive
Compression mode : Lossy
Bits/(Pixel*Frame) : 0.151
Stream size : 306 MiB (95%)

Audio
ID : 2
Format : WMA
Format version : Version 2
Codec ID : 161
Codec ID/Info : Windows Media Audio
Description of the codec : Windows Media Audio 9 - 48 kbps, 44 kHz, mono CBR
Duration : 28mn 33s
Bit rate : 48.0 Kbps
Channel(s) : 1 channel
Sampling rate : 44.1 KHz
Bit depth : 16 bits
Stream size : 9.81 MiB (3%)

Screenshot(s):





Download Link(s):

https://rapidgator.net/file/48c7464...82/Gabriella_Paltrova_-_Coochie_Coat_wmv.html