Czech Amateurs - Czech Amateurs 70

#1
Czech Amateurs - Czech Amateurs 70
Techinfo: Duration : 46mn 12s Bit rate : 1 200 Kbps Width : 704 pixels Height : 396 pixels Display aspect ratio : 16:9 Frame rate mode : Constant Frame rate : 25.000 fps Color space : YUV Chroma subsampling : 4:2:0 Bit depth : 8 bits Scan type : Progressive Bits/(Pixel*Frame) : 0.172 Stream size : 397 MiB (90%) Bit rate mode : Constant Bit rate : 128 Kbps Channel(s) : 2 channels Channel positions : Front: L R Sampling rate : 48.0 KHz Compression mode : Lossy Delay relative to video : 80ms Stream size : 42.3 MiB (10%) https://rapidgator.net/file/8c1858a...Czechamateurs_-_Czech_Amateurs_70_SD.mp4.html http://filegag.com/hkw38em8eu8w http://turbobit.net/s1s9rtadu1vn.html http://ryushare.com/jb2jm89tmj3w/Czechamateurs_-_Czech_Amateurs_70_SD.mp4