Wow Porn - Anjelica - A Lonely Stranger

Discussion in 'XXX Movie Clips & Video Scenes' started by wippy86, Jun 19, 2013.

  1. wippy86

    wippy86 New Member

    [​IMG]
    [​IMG]




    Complete name : wowporn.anjelica.lonely.stranger.SD.mp4
    Format : MPEG-4
    Format profile : Base Media
    Codec ID : isom
    File size : 372 MiB
    Duration : 17mn 39s
    Overall bit rate : 2 944 Kbps

    Video
    ID : 1
    Format : AVC
    Duration : 17mn 39s
    Bit rate : 2 842 Kbps
    Width : 852 pixels
    Height : 480 pixels
    Display aspect ratio : 16:9
    Frame rate mode : Constant
    Frame rate : 29.970 fps
    Bits/(Pixel*Frame) : 0.232
    Stream size : 359 MiB (97%)
    Writing library : x264 core 107

    Audio
    ID : 2
    Format : AAC
    Format/Info : Advanced Audio Codec
    Format profile : LC
    Codec ID : 40
    Duration : 17mn 39s
    Bit rate mode : Variable
    Bit rate : 96.0 Kbps
    Channel(s) : 2 channels
    Channel positions : Front: L R
    Sampling rate : 44.1 KHz
    Compression mode : Lossy
    Delay relative to video : 33ms
    Stream size : 12.1 MiB (3%)




    Download:

    Code:
    http://shareflare.net/download/37329.349251dac85c9a613d4c32c4630b/wowporn.anjelica.lonely.stranger.SD.mp4.html
     

Share This Page