Skinny College Girl Fucked in Bathroom

Discussion in 'XXX Movie Clips & Video Scenes' started by wippy86, Jul 20, 2013.

  1. wippy86

    wippy86 New Member

    [​IMG]




    Format : AVI
    Format/Info : Audio Video Interleave
    File size : 303 MiB
    Duration : 26mn 44s
    Overall bit rate : 1 582 Kbps
    Writing application : Lavf52.39.1

    Video
    ID : 0
    Format : AVC
    Format/Info : Advanced Video Codec
    Format profile : Baseline@L5.1
    Format settings, CABAC : No
    Format settings, ReFrames : 1 frame
    Format settings, GOP : M=1, N=12
    Codec ID : H264
    Duration : 26mn 44s
    Bit rate : 1 500 Kbps
    Width : 640 pixels
    Height : 480 pixels
    Display aspect ratio : 4:3
    Frame rate : 25.000 fps
    Color space : YUV
    Chroma subsampling : 4:2:0
    Bit depth : 8 bits
    Scan type : Progressive
    Bits/(Pixel*Frame) : 0.195
    Stream size : 288 MiB (95%)
    Writing library : x264 core 57
    Encoding settings : cabac=0 / ref=1 / deblock=0:0:0 / analyse=0x1:0 / me=dia / subme=7 / brdo=0 / mixed_ref=0 / me_range=4 / chroma_me=0 / trellis=0 / 8x8dct=0 / cqm=0 / deadzone=21,11 / chroma_qp_offset=0 / threads=1 / nr=0 / decimate=1 / mbaff=0 / bframes=0 / keyint=12 / keyint_min=7 / scenecut=0 / rc=abr / bitrate=1500 / ratetol=2.7 / rceq='tex^qComp' / qcomp=0.50 / qpmin=2 / qpmax=31 / qpstep=3 / ip_ratio=1.25

    Audio
    ID : 1
    Format : MPEG Audio
    Format version : Version 1
    Format profile : Layer 3
    Mode : Joint stereo
    Mode extension : MS Stereo
    Codec ID : 55
    Codec ID/Hint : MP3
    Duration : 26mn 44s
    Bit rate mode : Constant
    Bit rate : 64.0 Kbps
    Channel(s) : 2 channels
    Sampling rate : 48.0 KHz
    Compression mode : Lossy
    Stream size : 12.2 MiB (4%)
    Alignment : Aligned on interleaves
    Interleave, duration : 24 ms (0.60 video frame)




    Download:

    Code:
    http://letitbit.net/download/62188.61fa42db5252342dfb9043c03db3/Skinny_College_Girl_Fucked_in_Bathroom.avi.html
     

Share This Page