High Definition Natural Breasts Hardcore Action

Discussion in 'HD Vids' started by userdog222, Sep 15, 2013.

  1. userdog222

    userdog222 New Member

    Elena Love -


    [​IMG]


    http://depositfiles.com/files/go1fn9wvs
    http://depositfiles.com/files/68eqszhoc
    http://depositfiles.com/files/umgwbk7ap
    http://depositfiles.com/files/xhlbl9izh
    http://depositfiles.com/files/bhea6xaz5

    http://www.intporn.org/redir/hotfile.php?dl/245753681/af71979/Elena_Love.part1.rar.html
    http://www.intporn.org/redir/hotfile.php?dl/245760035/61ef654/Elena_Love.part2.rar.html
    http://www.intporn.org/redir/hotfile.php?dl/245765988/a38e76c/Elena_Love.part3.rar.html
    http://www.intporn.org/redir/hotfile.php?dl/245771817/1fea454/Elena_Love.part4.rar.html
    http://www.intporn.org/redir/hotfile.php?dl/245778181/410c7ed/Elena_Love.part5.rar.html

    MediaInfo:

    Format : MPEG-4
    Format profile : Base Media
    Codec ID : isom
    File size : 1.73 GiB
    Duration : 32mn 27s
    Overall bit rate mode : Variable
    Overall bit rate : 7635 Kbps
    Encoded date : UTC 2011-02-14 14:09:15
    Tagged date : UTC 2011-02-14 14:09:15
    Writing application : Lavf52.62.0

    Video
    ID : 1
    Format : AVC
    Format/Info : Advanced Video Codec
    Format profile : Baseline@L4.0
    Format settings, CABAC : No
    Format settings, ReFrames : 1 frame
    Codec ID : avc1
    Codec ID/Info : Advanced Video Coding
    Duration : 32mn 26s
    Bit rate : 7502 Kbps
    Width : 1920 pixels
    Height : 1080 pixels
    Display aspect ratio : 16:9
    Frame rate mode : Variable
    Frame rate : 29.970 fps
    Minimum frame rate : 29.412 fps
    Maximum frame rate : 30.303 fps
    Color space : YUV
    Chroma subsampling : 4:2:0
    Bit depth : 8 bits
    Scan type : Progressive
    Bits/(Pixel*Frame) : 0.121
    Stream size : 1.70 GiB (98%)
    Encoded date : UTC 2011-02-14 14:09:15
    Tagged date : UTC 2011-02-14 14:09:15

    Audio
    ID : 2
    Format : AAC
    Format/Info : Advanced Audio Codec
    Format profile : LC
    Codec ID : 40
    Duration : 32mn 27s
    Bit rate mode : Variable
    Bit rate : 128 Kbps
    Channel(s) : 2 channels
    Channel positions : Front: L R
    Sampling rate : 48.0 KHz
    Compression mode : Lossy
    Stream size : 29.7 MiB (2%)
    Encoded date : UTC 2011-02-14 14:09:15
    Tagged date : UTC 2011-02-14 14:09:15
     
  2. userdog222

    userdog222 New Member

    Bree Olsen

    [​IMG]

    http://depositfiles.com/files/kd3mg4tiv
    http://depositfiles.com/files/wmh5gsp0l
    http://depositfiles.com/files/i292uexuc
    http://depositfiles.com/files/8azd5laqj
    http://depositfiles.com/files/uwlex3prg
    http://depositfiles.com/files/hc3kruxv2
    http://depositfiles.com/files/iqnfmnr9n
    http://depositfiles.com/files/8e6c4dd2s
    http://depositfiles.com/files/y2joer4c1
    http://depositfiles.com/files/n5t1fq3r5
    http://depositfiles.com/files/bwtnhxy1z


    http://www.intporn.org/redir/hotfile.php?dl/245651190/98bdaf2/
    http://www.intporn.org/redir/hotfile.php?dl/245656926/1e86e54/
    http://www.intporn.org/redir/hotfile.php?dl/245663410/fd5f2e5/
    http://www.intporn.org/redir/hotfile.php?dl/245670244/deced46/
    http://www.intporn.org/redir/hotfile.php?dl/245677199/db61c3f/
    http://www.intporn.org/redir/hotfile.php?dl/245684506/e668591/
    http://www.intporn.org/redir/hotfile.php?dl/245691704/f81892b/
    http://www.intporn.org/redir/hotfile.php?dl/245699298/6161bd1/
    http://www.intporn.org/redir/hotfile.php?dl/245707016/1b93ae4/
    http://www.intporn.org/redir/hotfile.php?dl/245713848/031bc88/
    http://www.intporn.org/redir/hotfile.php?dl/245719527/ffcb10f/


    Media Info:

    Format : Windows Media
    File size : 4.14 GiB
    Duration : 50mn 54s
    Overall bit rate : 11.6 Mbps
    Maximum Overall bit rate : 12.1 Mbps
    Encoded date : UTC 2011-01-29 02:44:21.000

    Video
    ID : 2
    Format : VC-1
    Codec ID : WVC1
    Codec ID/Hint : Microsoft
    Duration : 50mn 54s
    Bit rate : 1 bps
    Width : 1 920 pixels
    Height : 1 080 pixels
    Display aspect ratio : 16:9
    Frame rate : 29.970 fps
    Bit depth : 16 bits
    Compression mode : Lossy
    Bits/(Pixel*Frame) : 0.000
    Stream size : 381 Bytes (0%)

    Audio
    ID : 1
    Format : WMA
    Format version : Version 2
    Codec ID : 161
    Codec ID/Info : Windows Media Audio
    Duration : 50mn 54s
    Bit rate : 128 Kbps
    Channel(s) : 2 channels
    Sampling rate : 44.1 KHz
    Bit depth : 16 bits
    Stream size : 46.6 MiB (1%)
     
  3. userdog222

    userdog222 New Member

    Allison Evers

    [​IMG]


    http://depositfiles.com/files/onqcuv4rd
    http://depositfiles.com/files/maf6j5h3j
    http://depositfiles.com/files/m7gxjctce

    http://www.intporn.org/redir/hotfile.php?dl/245576388/0b579c6/
    http://www.intporn.org/redir/hotfile.php?dl/245583241/17a7965/
    http://www.intporn.org/redir/hotfile.php?dl/245599578/573b4c4/

    MediaInfo:

    Format : MPEG-4
    Format profile : Base Media
    Codec ID : isom
    File size : 885 MiB
    Duration : 39mn 52s
    Overall bit rate : 3 102 Kbps
    Writing application : Lavf53.4.0

    Video
    ID : 1
    Format : AVC
    Format/Info : Advanced Video Codec
    Format profile : High@L3.1
    Format settings, CABAC : Yes
    Format settings, ReFrames : 4 frames
    Codec ID : avc1
    Codec ID/Info : Advanced Video Coding
    Duration : 39mn 52s
    Bit rate : 3 000 Kbps
    Width : 1 280 pixels
    Height : 720 pixels
    Display aspect ratio : 16:9
    Frame rate mode : Constant
    Frame rate : 29.970 fps
    Color space : YUV
    Chroma subsampling : 4:2:0
    Bit depth : 8 bits
    Scan type : Progressive
    Bits/(Pixel*Frame) : 0.109
    Stream size : 856 MiB (97%)
    Writing library : x264 core 115
    Encoding settings : cabac=1 / ref=4 / deblock=1:0:0 / analyse=0x3:0x133 / me=hex / subme=7 / psy=1 / psy_rd=1.00:0.00 / mixed_ref=1 / me_range=16 / chroma_me=1 / trellis=1 / 8x8dct=1 / cqm=0 / deadzone=21,11 / fast_pskip=1 / chroma_qp_offset=-2 / threads=6 / sliced_threads=0 / nr=0 / decimate=1 / interlaced=0 / bluray_compat=0 / constrained_intra=0 / bframes=3 / b_pyramid=2 / b_adapt=1 / b_bias=0 / direct=2 / weightb=1 / open_gop=0 / weightp=2 / keyint=60 / keyint_min=25 / scenecut=40 / intra_refresh=0 / rc_lookahead=40 / rc=2pass / mbtree=1 / bitrate=3000 / ratetol=1.0 / qcomp=0.60 / qpmin=10 / qpmax=51 / qpstep=4 / cplxblur=20.0 / qblur=0.5 / ip_ratio=1.41 / aq=1:1.00
    Language : English

    Audio
    ID : 2
    Format : AAC
    Format/Info : Advanced Audio Codec
    Format profile : LC
    Codec ID : 40
    Duration : 39mn 52s
    Bit rate mode : Constant
    Bit rate : 96.0 Kbps
    Channel(s) : 2 channels
    Channel positions : Front: L R
    Sampling rate : 44.1 KHz
    Compression mode : Lossy
    Stream size : 27.4 MiB (3%)
    Language : English
     
  4. userdog222

    userdog222 New Member

    Buttercup -


    [​IMG]



    http://depositfiles.com/files/p22fuz3ef
    http://depositfiles.com/files/58joaym4f
    http://depositfiles.com/files/fba0o1vkj
    http://depositfiles.com/files/40c80nmgv
    http://depositfiles.com/files/tofbxbv1w

    http://www.intporn.org/redir/hotfile.php?dl/245723323/e3257d2/Buttercup.part1.rar.html
    http://www.intporn.org/redir/hotfile.php?dl/245729484/cc7d39c/Buttercup.part2.rar.html
    http://www.intporn.org/redir/hotfile.php?dl/245736168/0c30818/Buttercup.part3.rar.html
    http://www.intporn.org/redir/hotfile.php?dl/245743025/434dede/Buttercup.part4.rar.html
    http://www.intporn.org/redir/hotfile.php?dl/245749803/8f9e1f8/Buttercup.part5.rar.html


    MediaInfo:

    Format : MPEG-4
    Format profile : Base Media
    Codec ID : isom
    File size : 1.78 GiB
    Duration : 33mn 25s
    Overall bit rate mode : Variable
    Overall bit rate : 7635 Kbps
    Encoded date : UTC 2011-02-14 12:23:04
    Tagged date : UTC 2011-02-14 12:23:04
    Writing application : Lavf52.62.0

    Video
    ID : 1
    Format : AVC
    Format/Info : Advanced Video Codec
    Format profile : Baseline@L4.0
    Format settings, CABAC : No
    Format settings, ReFrames : 1 frame
    Format settings, GOP : N=1
    Codec ID : avc1
    Codec ID/Info : Advanced Video Coding
    Duration : 33mn 24s
    Bit rate : 7502 Kbps
    Width : 1920 pixels
    Height : 1080 pixels
    Display aspect ratio : 16:9
    Frame rate mode : Variable
    Frame rate : 29.970 fps
    Minimum frame rate : 29.412 fps
    Maximum frame rate : 30.303 fps
    Color space : YUV
    Chroma subsampling : 4:2:0
    Bit depth : 8 bits
    Scan type : Progressive
    Bits/(Pixel*Frame) : 0.121
    Stream size : 1.75 GiB (98%)
    Encoded date : UTC 2011-02-14 12:23:04
    Tagged date : UTC 2011-02-14 12:23:04

    Audio
    ID : 2
    Format : AAC
    Format/Info : Advanced Audio Codec
    Format profile : LC
    Codec ID : 40
    Duration : 33mn 25s
    Bit rate mode : Variable
    Bit rate : 128 Kbps
    Channel(s) : 2 channels
    Channel positions : Front: L R
    Sampling rate : 48.0 KHz
    Compression mode : Lossy
    Stream size : 30.6 MiB (2%)
    Encoded date : UTC 2011-02-14 12:23:04
    Tagged date : UTC 2011-02-14 12:23:04
     
  5. userdog222

    userdog222 New Member

    Allie James

    [​IMG]

    Depositfiles:
    http://depositfiles.com/files/4dbjbes9h
    http://depositfiles.com/files/q23ey787c

    Hotfile:
    http://www.intporn.org/redir/hotfile.php?dl/245564437/ed9fc40/
    http://www.intporn.org/redir/hotfile.php?dl/245571396/9158606/

    MediaInfo:

    Format : MPEG-4
    Codec ID : M4V
    File size : 700 MiB
    Duration : 23mn 40s
    Overall bit rate mode : Variable
    Overall bit rate : 4 133 Kbps
    Encoded date : UTC 2012-02-15 17:27:12
    Tagged date : UTC 2012-02-15 17:27:12

    Video
    ID : 1
    Format : AVC
    Format/Info : Advanced Video Codec
    Format profile : Main@L3.1
    Format settings, CABAC : Yes
    Format settings, ReFrames : 2 frames
    Codec ID : avc1
    Codec ID/Info : Advanced Video Coding
    Duration : 23mn 40s
    Bit rate mode : Variable
    Bit rate : 3 999 Kbps
    Maximum bit rate : 4 400 Kbps
    Width : 1 280 pixels
    Height : 720 pixels
    Display aspect ratio : 16:9
    Frame rate mode : Constant
    Frame rate : 29.970 fps
    Color space : YUV
    Chroma subsampling : 4:2:0
    Bit depth : 8 bits
    Scan type : Progressive
    Bits/(Pixel*Frame) : 0.145
    Stream size : 677 MiB (97%)
    Encoded date : UTC 2012-02-15 17:27:12
    Tagged date : UTC 2012-02-15 17:27:12

    Audio
    ID : 2
    Format : AAC
    Format/Info : Advanced Audio Codec
    Format profile : LC
    Codec ID : 40
    Duration : 23mn 40s
    Duration_FirstFrame : 23ms
    Bit rate mode : Variable
    Bit rate : 128 Kbps
    Maximum bit rate : 132 Kbps
    Channel(s) : 2 channels
    Channel positions : Front: L R
    Sampling rate : 44.1 KHz
    Compression mode : Lossy
    Stream size : 21.3 MiB (3%)
    Encoded date : UTC 2012-02-15 17:27:12
    Tagged date : UTC 2012-02-15 17:27:12
     
  6. userdog222

    userdog222 New Member

    Amy [No Last Name]

    [​IMG]

    Depositfiles:

    http://depositfiles.com/files/5f7km7tei
    http://depositfiles.com/files/haoqcac53
    http://depositfiles.com/files/hdph9hz49
    http://depositfiles.com/files/plnolxn6m
    http://depositfiles.com/files/yi0o61xbc
    http://depositfiles.com/files/8dgh3bm03

    Hotfile:

    http://www.intporn.org/redir/hotfile.php?dl/245600713/03c6585/
    http://www.intporn.org/redir/hotfile.php?dl/245606277/d36ced9/
    http://www.intporn.org/redir/hotfile.php?dl/245611609/e5b7f24/
    http://www.intporn.org/redir/hotfile.php?dl/245617507/94ecaa7/
    http://www.intporn.org/redir/hotfile.php?dl/245623687/701da72/
    http://www.intporn.org/redir/hotfile.php?dl/245630141/1b57d14/
    http://www.intporn.org/redir/hotfile.php?dl/245636142/2067ab9/


    MediaInfo:

    FFormat : Windows Media
    File size : 2.60 GiB
    Duration : 32mn 41s
    Overall bit rate : 11.4 Mbps
    Maximum Overall bit rate : 12.1 Mbps
    Encoded date : UTC 2011-09-10 00:36:23.000

    Video
    ID : 2
    Format : VC-1
    Codec ID : WVC1
    Codec ID/Hint : Microsoft
    Duration : 32mn 41s
    Bit rate : 1 bps
    Width : 1 920 pixels
    Height : 1 080 pixels
    Display aspect ratio : 16:9
    Frame rate : 59.940 fps
    Bit depth : 16 bits
    Compression mode : Lossy
    Bits/(Pixel*Frame) : 0.000
    Stream size : 245 Bytes (0%)

    Audio
    ID : 1
    Format : WMA
    Format version : Version 2
    Codec ID : 161
    Codec ID/Info : Windows Media Audio
    Duration : 32mn 41s
    Bit rate : 128 Kbps
    Channel(s) : 2 channels
    Sampling rate : 44.1 KHz
    Bit depth : 16 bits
    Stream size : 29.9 MiB (1%)