Don't Touch My Box - Lolly Ink

Discussion in 'XXX Movie Clips & Video Scenes' started by wippy86, Aug 27, 2013.

  1. wippy86

    wippy86 New Member

    [​IMG]
    [​IMG]
    [​IMG]



    General
    Format : MPEG-4
    Format profile : Base Media
    Codec ID : isom
    File size : 509 MiB
    Duration : 31mn 55s
    Overall bit rate : 2 231 Kbps
    Writing application : Lavf54.37.100

    Video
    ID : 1
    Format : AVC
    Format/Info : Advanced Video Codec
    Format profile : High@L3.0
    Format settings, CABAC : Yes
    Format settings, ReFrames : 5 frames
    Codec ID : avc1
    Codec ID/Info : Advanced Video Coding
    Duration : 31mn 55s
    Bit rate : 2 000 Kbps
    Width : 854 pixels
    Height : 480 pixels
    Display aspect ratio : 16:9
    Frame rate mode : Constant
    Frame rate : 23.976 fps
    Color space : YUV
    Chroma subsampling : 4:2:0
    Bit depth : 8 bits
    Scan type : Progressive
    Bits/(Pixel*Frame) : 0.203
    Stream size : 457 MiB (90%)
    Writing library : x264 core 128 r2216 198a7ea
    Encoding settings : cabac=1 / ref=5 / deblock=1:0:0 / analyse=0x3:0x113 / me=umh / subme=8 / psy=1 / psy_rd=1.00:0.00 / mixed_ref=1 / me_range=16 / chroma_me=1 / trellis=1 / 8x8dct=1 / cqm=0 / deadzone=21,11 / fast_pskip=1 / chroma_qp_offset=-2 / threads=36 / lookahead_threads=6 / sliced_threads=0 / nr=0 / decimate=1 / interlaced=0 / bluray_compat=0 / constrained_intra=0 / bframes=3 / b_pyramid=2 / b_adapt=2 / b_bias=0 / direct=3 / weightb=1 / open_gop=0 / weightp=2 / keyint=60 / keyint_min=6 / scenecut=40 / intra_refresh=0 / rc_lookahead=50 / rc=abr / mbtree=1 / bitrate=2000 / ratetol=1.0 / qcomp=0.60 / qpmin=0 / qpmax=69 / qpstep=4 / ip_ratio=1.40 / aq=1:1.00
    Tagged date : UTC 2013-08-23 16:21:18

    Audio
    ID : 2
    Format : AAC
    Format/Info : Advanced Audio Codec
    Format profile : LC
    Codec ID : 40
    Duration : 31mn 55s
    Duration_LastFrame : 33ms
    Bit rate mode : Constant
    Bit rate : 128 Kbps
    Channel(s) : 2 channels
    Channel positions : Front: L R
    Sampling rate : 48.0 KHz
    Compression mode : Lossy
    Stream size : 29.2 MiB (6%)
    Tagged date : UTC 2013-08-23 16:21:18





    Download:

    Code:
    http://megabitshare.com/2prbtnop5spn/rws_lolly_ink_bb052313_480p_2000.mp4