Czech Amateurs - Czech Amateurs 70

Discussion in 'XXX Movie Clips & Video Scenes' started by Mingan, Apr 4, 2013.

  1. Mingan

    Mingan New Member

    Czech Amateurs - Czech Amateurs 70 [​IMG] Techinfo: Duration : 46mn 12s Bit rate : 1 200 Kbps Width : 704 pixels Height : 396 pixels Display aspect ratio : 16:9 Frame rate mode : Constant Frame rate : 25.000 fps Color space : YUV Chroma subsampling : 4:2:0 Bit depth : 8 bits Scan type : Progressive Bits/(Pixel*Frame) : 0.172 Stream size : 397 MiB (90%) Bit rate mode : Constant Bit rate : 128 Kbps Channel(s) : 2 channels Channel positions : Front: L R Sampling rate : 48.0 KHz Compression mode : Lossy Delay relative to video : 80ms Stream size : 42.3 MiB (10%) http://rapidgator.net/file/8c1858a6...Czechamateurs_-_Czech_Amateurs_70_SD.mp4.html http://filegag.com/hkw38em8eu8w http://turbobit.net/s1s9rtadu1vn.html http://ryushare.com/jb2jm89tmj3w/Czechamateurs_-_Czech_Amateurs_70_SD.mp4
     

Share This Page