Black Anal Addiction 2 - Janea Jolie

Discussion in 'XXX Movie Clips & Video Scenes' started by Mingan, Apr 4, 2013.

  1. Mingan

    Mingan New Member

    Black Anal Addiction 2 - Janea Jolie [​IMG] Techinfo: Bit rate mode : Variable Bit rate : 1 200 Kbps Width : 720 pixels Height : 400 pixels Display aspect ratio : 16:9 Frame rate mode : Constant Frame rate : 29.970 fps Resolution : 24 bits Colorimetry : 4:2:0 Scan type : Progressive Bits/(Pixel*Frame) : 0.139 Stream size : 447 MiB (90%) Bit rate mode : Variable Bit rate : 128 Kbps Channel(s) : 2 channels Channel positions : L R Sampling rate : 44.1 KHz Resolution : 16 bits Stream size : 47.5 MiB (10%) http://rapidgator.net/file/c33a5895...pk.blkanaddict2.sc3.janea.jolie.480p.mp4.html http://filegag.com/w16zof4o00jt http://turbobit.net/4zsk0ijjs9uz.html http://ryushare.com/2warsn2qyqzq/pk.blkanaddict2.sc3.janea.jolie.480p.mp4
     

Share This Page