Black Anal Addiction 2 - Farah Faye

Discussion in 'XXX Movie Clips & Video Scenes' started by Mingan, Apr 4, 2013.

  1. Mingan

    Mingan Proud Member

    Black Anal Addiction 2 - Farah Faye [​IMG] Techinfo: odec ID/Info : Advanced Video Coding Duration : 43mn 28s Bit rate mode : Variable Bit rate : 1 200 Kbps Width : 720 pixels Height : 400 pixels Display aspect ratio : 16:9 Frame rate mode : Constant Frame rate : 29.970 fps Resolution : 24 bits Colorimetry : 4:2:0 Scan type : Progressive Bits/(Pixel*Frame) : 0.139 Stream size : 374 MiB (90%) Writing library : x264 core 107 Encoding settings : cabac=1 / ref=3 / deblock=1:0:0 / analyse=0x3:0x113 / me=umh / subme=6 / psy=1 / psy_rd=1.00:0.00 / mixed_ref=1 / me_range=16 / chroma_me=1 / trellis=0 / 8x8dct=1 / cqm=0 / deadzone=21,11 / fast_pskip=1 / chroma_qp_offset=-2 / threads=1 / sliced_threads=0 / nr=0 / decimate=1 / interlaced=0 / constrained_intra=0 / bframes=2 / b_pyramid=2 / b_adapt=2 / b_bias=0 / direct=2 / weightb=1 / open_gop=0 / weightp=0 / keyint=30 / keyint_min=16 / scenecut=0 / intra_refresh=0 / rc_lookahead=30 / rc=abr / mbtree=1 / bitrate=1200 / ratetol=1.0 / qcomp=0.60 / qpmin=1 / qpmax=31 / qpstep=4 / ip_ratio=1.41 / aq=1:1.00 Encoded date : UTC 1970-01-01 00:00:00 Tagged date : UTC 1970-01-01 00:00:00 Audio #2 ID : 2 Format : AAC Format/Info : Advanced Audio Codec Format version : Version 4 Format profile : LC Format settings, SBR : No Codec ID : 40 Duration : 43mn 28s Bit rate mode : Variable Bit rate : 128 Kbps Channel(s) : 2 channels Channel positions : L R Sampling rate : 44.1 KHz Resolution : 16 bits Stream size : 39.8 MiB (10%) Encoded date : UTC 1970-01-01 00:00:00 Tagged date : UTC 1970-01-01 00:00:00 http://rapidgator.net/file/f905c9d2.../pk.blkanaddict2.sc4.farah.faye.480p.mp4.html http://filegag.com/ajg8exfo8xmi http://turbobit.net/gjku80i6e1sh.html http://ryushare.com/gw25rgype9hk/pk.blkanaddict2.sc4.farah.faye.480p.mp4