Big Tits At School - Joslyn James - My Name is Professor Fucky

Discussion in 'XXX Movie Clips & Video Scenes' started by Mingan, Apr 4, 2013.

  1. Mingan

    Mingan New Member

    Big Tits At School - Joslyn James - My Name is Professor Fucky [​IMG] Techinfo: Video ID : 1 Format : AVC Format/Info : Advanced Video Codec Format profile : High@L3.1 Duration : 32mn 48s Bit rate : 1 000 Kbps Width : 854 pixels Height : 480 pixels Display aspect ratio : 16:9 Frame rate mode : Constant Frame rate : 29.970 fps Bit depth : 8 bits Stream size : 234 MiB (84%) Writing library : x264 core 128 r2216 198a7ea Audio ID : 2 Format : AAC Format/Info : Advanced Audio Codec Format profile : LC Codec ID : 40 Duration : 32mn 48s Duration_LastFrame : 33ms Bit rate mode : Constant Bit rate : 128 Kbps Channel(s) : 2 channels Channel positions : Front: L R Sampling rate : 48.0 KHz Compression mode : Lossy Stream size : 30.0 MiB (11%) http://rapidgator.net/file/ffb88a6b06a06dba9a046d7b3257fb68/btas_joslyn_james_480p_1000.mp4.html http://filegag.com/gf5m6qydnjfb http://turbobit.net/mbdckw3pqo6r.html http://ryushare.com/wdvuothrk2oj/btas_joslyn_james_480p_1000.mp4
     

Share This Page